espressedizioni
» Peter McCann - One On One

Peter McCann - One On One flac

Tracklist

1Don't Take It Out On Me
2Damned If I Love You
3Come By Here
4Road To Love
5That's Just The Way That I Feel
6Step Right Up
7All You Got To Do
8What's He Got
9 Just One Woman

Versions

CategoryArtistTitle (Format)LabelCategoryCountryYear
JC 35724Peter McCann One On One ‎(LP, Album, Promo)ColumbiaJC 35724US1979
SBP 237295Peter McCann One To One ‎(LP, Album)CBSSBP 237295Australia1993
25AP 1588Peter McCann One On One ‎(LP, Album)CBS/Sony25AP 1588Japan1979
JC 35724Peter McCann One On One ‎(LP, Album)ColumbiaJC 35724US1979
SRCS 6361Peter McCann One To One ‎(CD, Album, RE)Sony RecordsSRCS 6361Japan1993

Credits

  • ProducerHal Yoergler

Notes

Originally released 1979.

Barcodes

  • Other (UPC): 8803581141511

Album

Peter McCann is the debut album by Peter McCann and was released in 1977. It reached No. 82 on the Billboard Top LPs chart. The album featured two singles: Do You Wanna Make Love, which reached No. 5 on the Billboard Hot 100 and Save Me Your Love, which did not chart. All songs written by Peter McCann. Do You Wanna Make Love 3:18. Everybody's Got to Hold on to Something - 2:51. I Can't Live Without You - 3:34. It's Easy - 2:55. The Things You Left Behind - 3:30. Save Me Your Love -. from album ONE ON ONE 1979. Listen free to Peter McCann One On One Just One Woman, Love This Time and more. 10 tracks 34:21. Peter McCann: American musician and songwriter. Born in Bridgeport Connecticut, McCann graduated from Fairfield University in Connecticut with a B. in history. He began recording for Motown Records in 1971. Do You Wanna Make Love, When Jesus Wept, My God Is Real Yes God Is Real и другие песни. One on One from Peter McCann 1979 Vinyl. 1,000 album search results for peter mccann. Peter McCann. Pete McCann. Peter Gabriel. All formats Album CD CD Album CD Single CD Maxi Vinyl records LP 7 inchs 7 inchs SP 7 inchs EP 12 inchs 78 rpm 10 inchs DVD VHS Cassette Clothing T-Shirt Others. Featured items. Featured sellers. New items. Good deals. Mint Sellers. peter mccann One on one. Sold and dispatched by. LPFRENZY80S. 38 sales. Item not available : The seller is away until 06012020. JC 35724. One On One LP, Album, Promo. One To One CD, Album, RE. Sony Records. Peter McCann - One On One - free download. Review Peter McCann - One On One. Nice dynamic remaster. Potentially same as 1993 CD reissuefoobar2000 , Dynamic Range Meter date: 2018-08-17 18:42:35-. Analyzed: Peter McCann, One On One . Listen to Peter McCann Radio featuring songs from One on One free online. Слушать бесплатное интернет-радио, спорт, музыку, новости, разговорное и подкасты. События в прямом эфире, трансляции игр NFL, MLB, NBA, NHL, университетских команд и матчи Премьер-лиги. CNN, MSNBC, Fox News, ESPN, BBC, NPR. Dont Take It Out on Me. Step Right Up. Road to Love. Come by Here. All You Got to Do. Thats Just the Way That I Feel. Спорт, музыка, новости и подкасты. Peter McCann 1977. Album by Peter McCann. Do You Wanna Make Love. was covered in. Do You Wanna Make Love by Millie Jackson and Isaac Hayes 1979. Faire L'Amour Avec Toi by Michel Pilon 1977. Do You Wanna Make Love by Springbok 1977

Video

Peter McCann - One On One flac
Performer:
Peter McCann
Title:
One On One
Genre:
FLAC size:
2532 mb
MP3 size:
2880 mb
WMA size:
1496 mb
Country:
South Korea
Released:
2013
Label:
Sony Music
Style:
AOR, Soft Rock, Pop Rock
Rating:
4.4
Catalog №:
Cobalt Hour 033
Boyn
Nice dynamic remaster. Potentially same as 1993 CD reissue?

foobar2000 1.3.17 / Dynamic Range Meter 1.1.1
log date: 2018-08-17 18:42:35

--------------------------------------------------------------------------------
Analyzed: Peter McCann / One On One [KR 2013 CD]
--------------------------------------------------------------------------------

DR Peak RMS Duration Track
--------------------------------------------------------------------------------
DR12 -1.55 dB -16.51 dB 2:40 01-Just One Woman
DR12 -3.51 dB -19.75 dB 3:05 02-Love This Time
DR13 -1.52 dB -17.23 dB 4:23 03-What's He Got
DR13 -1.58 dB -18.48 dB 2:59 04-Damned If I Love You
DR12 -0.40 dB -16.22 dB 3:33 05-Don't Take It Out On Me
DR11 -2.69 dB -17.64 dB 3:44 06-Step Right Up
DR12 -3.36 dB -19.35 dB 3:06 07-Road To Love
DR14 -1.43 dB -18.96 dB 2:51 08-Come By Here
DR13 -3.85 dB -20.15 dB 4:20 09-All You Got To Do
DR12 -2.57 dB -18.07 dB 3:43 10-That's Just The Way That I Feel
--------------------------------------------------------------------------------

Number of tracks: 10
Official DR value: DR13

Samplerate: 44100 Hz
Channels: 2
Bits per sample: 16
Bitrate: 858 kbps
Codec: ALAC
================================================================================
© 2018-2021 Copyrights
All rights reserved. espressedizioni.it | Privacy Policy | DMCA | Contacts